<svg xmlns="http://www.w3.org/2000/svg">
<defs>
<font
       id="FontID0"
       horiz-adv-x="739"
       font-variant="normal"
       style="fill-rule:nonzero"
       font-style="normal"
       font-weight="400"><font-face
         font-family="Century Gothic"
         id="font-face13094" /><missing-glyph
         id="missing-glyph13098"><path
           d="M0 0z"
           id="path13096" /></missing-glyph><glyph
         unicode="A"
         horiz-adv-x="739"
         id="glyph13102"><path
           d="M381 718 716 0h-77.165l-112 236H215.504L104 0H24l339 718h18zm-9-150.496L248.504 306H495L372 567.504z"
           id="path13100" /></glyph><glyph
         unicode="t"
         horiz-adv-x="338"
         id="glyph13106"><path
           d="M135 729h68V531h108v-59H203V0h-68v472H42v59h93v198z"
           id="path13104" /></glyph><glyph
         unicode="c"
         horiz-adv-x="647"
         id="glyph13110"><path
           d="m592 420.669-54.165-33.67c-47 62-111.165 93-192.504 93-65 0-119-20.834-162-62.33C140.504 376.165 119 325.834 119 266.504c0-38.67 9.835-75 29.67-109 19.66-34 46.834-60.504 81.33-79.339C264.33 59.331 303 50 345.835 50c78.33 0 142.33 31 192 93L592 107.33c-25.496-38.165-59.669-67.66-102.496-88.826C446.504-2.504 397.67-13 342.835-13c-84.33 0-154.165 26.67-209.669 79.835-55.496 53.33-83.165 118-83.165 194.33C50 312.332 63 360 89 404.002c25.835 44 61.504 78.33 106.835 103 45.496 24.669 96.165 37 152.33 37 35.34 0 69.34-5.331 102.166-16 32.67-10.67 60.504-24.67 83.339-41.835 23-17.165 42.33-39 58.33-65.496z"
           id="path13108" /></glyph><glyph
         unicode="n"
         horiz-adv-x="609"
         id="glyph13114"><path
           d="M76 531h68v-95.165c27.504 36.33 57.835 63.496 91 81.33C268.33 535 304.504 544 343.669 544c39.835 0 75.165-10 106-30.165 30.835-20.166 53.661-47.331 68.33-81.504 14.67-34 22-87.166 22-159.331V0h-68v253c0 61-2.669 101.835-7.834 122.33-8.33 35-23.661 61.34-46.165 79.174C395.504 472.165 366.165 481 330 481c-41.496 0-78.67-13.67-111.331-41-32.835-27.165-54.504-61-64.835-101.331-6.504-26.339-9.835-74.339-9.835-144.165V0H76v531z"
           id="path13112" /></glyph><glyph
         unicode="v"
         horiz-adv-x="554"
         id="glyph13118"><path
           d="M26 531h71.504L276.33 143.331 453.835 531H527L284 0h-13L26 531z"
           id="path13116" /></glyph><glyph
         unicode="e"
         horiz-adv-x="649"
         id="glyph13122"><path
           d="m524.331 176 57.67-30.33c-19-36.835-40.835-66.67-65.67-89.34-24.827-22.495-52.661-39.826-83.661-51.66C401.504-7.166 366.504-13 327.33-13c-87 0-154.826 28.33-203.826 85S50 192.669 50 264c0 67.165 20.834 127.165 62.33 179.669C164.834 510.504 235.33 544 323.503 544 414.33 544 487 509.67 541.164 441.165 579.668 392.835 599.33 332.504 600 260h-480c1.33-61.496 21.165-111.835 59.33-151C217.67 69.67 265 50 321.166 50c27.165 0 53.669 4.67 79.338 14C426.165 73.33 448 85.67 466 101.165c18 15.504 37.504 40.339 58.331 74.835zm.67 143c-9.166 36.504-22.497 65.504-40 87.33-17.67 21.835-40.835 39.34-69.67 52.67-28.827 13.33-59.165 20-90.827 20C272 479 227 462.33 189.331 428.835c-27.661-24.504-48.33-61-62.496-109.835H525z"
           id="path13120" /></glyph><glyph
         unicode="b"
         horiz-adv-x="682"
         id="glyph13126"><path
           d="M81 0v736h68V439c28.67 35.165 60.67 61.504 96.165 78.835C280.67 535.33 319.504 544 361.67 544c75.166 0 139.331-27.165 192.496-81.496C607.331 408 634 342.164 634 264.504c0-76.504-26.835-142-80.496-196.173C499.834 14.165 435.33-13 359.834-13c-43.33 0-82.503 9.165-117.668 27.503C207 32.834 176 60.504 149 97.67V0H81zm273.835 53c37.835 0 73 9.33 105 27.835 32.165 18.669 57.67 44.834 76.67 78.496C555.504 192.835 565 228.504 565 266c0 37.504-9.496 73.33-28.669 107.33-19.165 33.835-44.827 60.34-77.165 79.34C426.835 471.503 392.33 481 355.67 481c-37.166 0-72.67-9.496-106.34-28.33-33.495-19-59.33-44.505-77.33-76.505-18-32-27-68-27-108.165 0-61.165 20.165-112.33 60.67-153.33C246 73.503 295.67 53 354.833 53z"
           id="path13124" /></glyph><glyph
         unicode="p"
         horiz-adv-x="682"
         id="glyph13130"><path
           d="M77 531h68v-97.67c27 37.174 58 64.835 93.165 83.174C273.331 534.834 312.504 544 355.835 544c75.496 0 140-27.165 193.668-81.33C603.165 408.503 630 343.164 630 267c0-78-26.67-144-79.835-198.496C497 14.166 432.834-13 357.669-13c-42.165 0-81 8.835-116.504 26.331-35.496 17.67-67.496 43.835-96.166 78.67v-286H77v725zm273.835-53C291.67 478 242 457.504 201.67 416.33 161.166 375.166 141 324 141 262.836c0-40.166 9-76.331 27-108.331C186 122.33 211.836 97 245.332 78.165 279.001 59.33 314.505 50 351.671 50c36.66 0 71.165 9.504 103.495 28.504 32.339 18.826 58 45.33 77.166 79.33 19.173 34 28.67 69.67 28.67 106.835 0 37.662-9.497 73.331-28.497 107-19 33.662-44.504 59.835-76.67 78.331-32 18.67-67.165 28-105 28z"
           id="path13128" /></glyph><glyph
         unicode="m"
         horiz-adv-x="938"
         id="glyph13134"><path
           d="M76 531h68v-91.835c23.835 33.835 48.165 58.67 73.33 74.339C251.836 533.834 288.166 544 326.167 544c25.834 0 50.165-5 73.338-15.165 23.166-10 42-23.504 56.662-40.166 14.669-16.834 27.338-40.834 38.165-72.165 22.67 41.661 51.173 73.33 85.173 95C613.67 533.165 650.331 544 689.67 544c36.662 0 69.166-9.33 97.166-27.835 28.165-18.496 49-44.33 62.669-77.496C863.165 405.504 870 355.835 870 289.504V0h-70v289.67c0 57-4 96-12.165 117.33-8.166 21.331-22 38.504-41.67 51.504-19.661 13-43 19.496-70.33 19.496-33 0-63.331-9.834-90.67-29.33-27.496-19.504-47.496-45.504-60.165-78-12.67-32.504-19-86.835-19-162.835V0h-68v271.669c0 64-4 107.496-12 130.496-8 23-21.835 41.338-41.67 55.165-20 13.835-43.495 20.67-70.826 20.67-31.67 0-61.173-9.497-88.67-28.497-27.503-19-47.834-44.67-61-76.834C150.67 340.503 144 291.165 144 224.834V-.001H76v531z"
           id="path13132" /></glyph><glyph
         unicode="g"
         horiz-adv-x="672"
         id="glyph13138"><path
           d="M535 531h68V108.331c0-74.33-6.496-128.835-19.496-163.331-17.835-48.67-48.835-86.165-93.173-112.504C446.165-193.834 393-207 331-207c-45.496 0-86.331 6.496-122.67 19.33-36.165 13-65.66 30.34-88.495 52.166C97.165-113.834 76.165-81.834 57-40h74c20.165-35.33 46.165-61.504 78.165-78.504C241-135.504 280.67-144 327.835-144c46.669 0 86 8.67 118 25.835 32.165 17.33 55 39 68.669 65C528.165-27 535 15.165 535 73.67V101c-25.67-32.496-57.166-57.496-94.33-74.834C403.67 8.67 364.164 0 322.503 0c-48.834 0-94.67 12.166-137.669 36.33-43 24.174-76.165 56.836-99.67 97.67C61.67 175 50 220 50 269c0 49.166 12.166 94.835 36.67 137.331 24.33 42.339 58.165 76 101.33 100.67 43.166 24.668 88.67 37 136.505 37 39.661 0 76.827-8.166 111.165-24.332 34.33-16.165 67.496-43.165 99.33-81V531zm-201.835-53c-38.661 0-74.661-9.33-107.835-28-33.165-18.67-59.165-44.496-78-77.496-18.827-33-28.33-68.67-28.33-107.173 0-58.166 19.503-106.165 58.503-144.331 39-38 89.662-57 151.661-57 62.835 0 113.34 18.834 151.504 56.504 38.166 37.827 57.33 87.33 57.33 148.827 0 40-8.834 75.67-26.33 107-17.504 31.338-42.504 56.173-74.67 74.338C404.834 468.835 370.165 478 333.165 478z"
           id="path13136" /></glyph><glyph
         unicode="d"
         horiz-adv-x="685"
         id="glyph13142"><path
           d="M606 736V0h-68v91.33c-28.67-34.826-60.67-61-96.33-78.33C406.164-4.33 367.164-13 325-13c-75 0-139.165 27.165-192.33 81.504C79.503 123 53 189 53 267c0 76.165 26.835 141.504 80.504 195.669 53.496 54.165 118 81.33 193.496 81.33 43.504 0 82.835-9.33 118.165-27.834 35.165-18.496 66.165-46.33 92.835-83.496v303.33h68zM332.331 478c-38 0-73.165-9.33-105.165-28-32.165-18.496-57.661-44.67-76.661-78.33-19-33.67-28.504-69.34-28.504-107 0-37.166 9.504-72.835 28.669-106.836 19.165-34 44.835-60.504 77.165-79.33 32.331-19 67-28.504 104-28.504 37.166 0 72.67 9.33 106 28.165 33.497 18.835 59.166 44.166 77.166 76.339 18 32 27 68.165 27 108.33 0 61.166-20.166 112.332-60.67 153.497-40.33 41.173-90 61.669-149 61.669z"
           id="path13140" /></glyph><glyph
         horiz-adv-x="276"
         id="glyph13144" /><glyph
         unicode="."
         horiz-adv-x="276"
         id="glyph13148"><path
           d="M151 108c16.67 0 30.67-5.835 42.504-17.496 11.661-11.835 17.496-26 17.496-43 0-16.67-5.835-30.835-17.496-42.67C181.669-7 167.669-13 151-13c-16.496 0-30.67 6-42.496 17.835C96.834 16.669 91 30.835 91 47.504c0 17 5.835 31.165 17.504 43C120.33 102.165 134.504 108 151 108z"
           id="path13146" /></glyph><glyph
         unicode="a"
         horiz-adv-x="683"
         id="glyph13152"><path
           d="M605 531V0h-68v91.33c-28.67-34.826-60.67-61-96.33-78.33C405.164-4.33 366.164-13 324-13c-75 0-139.165 27.165-192.33 81.504C78.503 123 52 189 52 267c0 76.165 26.835 141.504 80.504 195.669 53.496 54.165 118 81.33 193.496 81.33 43.504 0 82.835-9.165 118.165-27.496 35.165-18.338 66.165-46 92.835-83.173V531h68zm-273.669-53c-38 0-73.165-9.33-105.165-28-32.165-18.496-57.661-44.67-76.661-78.33-19-33.67-28.504-69.34-28.504-107 0-37.166 9.504-72.835 28.669-106.836 19.165-34 44.835-60.504 77.165-79.33 32.331-19 67-28.504 104-28.504 37.166 0 72.67 9.33 106 28.165 33.497 18.835 59.166 44.166 77.166 76.339 18 32 27 68.165 27 108.33 0 61.166-20.166 112.332-60.67 153.497-40.33 41.173-90 61.669-149 61.669z"
           id="path13150" /></glyph><glyph
         unicode="r"
         horiz-adv-x="300"
         id="glyph13156"><path
           d="M50 531h70v-77.67c20.835 30.67 42.835 53.34 66 68.34 23.165 14.834 47.33 22.33 72.33 22.33 19 0 39.174-6 60.67-18l-35.67-57.33C269 474.834 257 478 247.166 478c-22.834 0-44.834-9.33-66-28-21.165-18.67-37.33-47.835-48.496-87.165-8.504-30.166-12.67-91.331-12.67-183.331V0H50v531z"
           id="path13154" /></glyph><glyph
         unicode="o"
         horiz-adv-x="654"
         id="glyph13160"><path
           d="M327.835 544c81.835 0 149.835-29.496 203.669-88.67C580.504 401.505 605 337.67 605 264c0-74-25.835-138.67-77.67-194C475.67 14.669 409-13 327.836-13c-81.67 0-148.504 27.669-200.165 83C75.835 125.33 50 190 50 264c0 73.33 24.504 137 73.504 190.835C177.331 514.33 245.504 544 327.835 544zm-.33-67c-56.835 0-105.505-20.835-146.34-62.67C140.331 372.505 120 321.836 120 262.505c0-38.174 9.33-73.835 27.834-107 18.67-33 43.835-58.504 75.497-76.504 31.503-18 66.338-27 104.173-27 37.826 0 72.661 9 104.165 27 31.661 18 56.834 43.504 75.496 76.504 18.504 33.165 27.834 68.826 27.834 107 0 59.33-20.496 110-61.496 151.827C432.67 456.165 384 477 327.503 477z"
           id="path13158" /></glyph><glyph
         unicode="l"
         horiz-adv-x="200"
         id="glyph13164"><path
           d="M66 736h68V0H66v736z"
           id="path13162" /></glyph><glyph
         unicode="z"
         horiz-adv-x="424"
         id="glyph13168"><path
           d="M32 531h391L122 61h291V0H4l302.331 472H32v59z"
           id="path13166" /></glyph><glyph
         unicode="i"
         horiz-adv-x="200"
         id="glyph13172"><path
           d="M99.835 749c15.496 0 28.669-5.496 39.669-16.67 11-11 16.496-24.495 16.496-40 0-15.33-5.496-28.66-16.496-39.66-11-11.166-24.173-16.67-39.67-16.67-15.33 0-28.33 5.504-39.33 16.67C49.504 663.67 44 677 44 692.33c0 15.505 5.504 29 16.504 40 11 11.174 24 16.67 39.33 16.67zM66 531h68V0H66v531z"
           id="path13170" /></glyph></font><font
       id="FontID1"
       horiz-adv-x="705"
       font-variant="normal"
       style="fill-rule:nonzero"
       font-style="normal"
       font-weight="400"><font-face
         font-family="CentSchbkCyrill BT"
         id="font-face13075" /><missing-glyph
         id="missing-glyph13079"><path
           d="M0 0z"
           id="path13077" /></missing-glyph><glyph
         unicode="€"
         horiz-adv-x="545"
         id="glyph13083"><path
           d="m472.173 253.008 44.835-5.843c-8.835-83.338-32.678-148.504-71.512-195.669-38.835-46.992-88.158-70.503-147.67-70.503-65.165 0-120.818 27.842-166.991 83.669C84.662 120.504 56 195.008 44.835 288H-9.008l16.835 39.008H42c0 5.496-.173 12-.504 19.496-.33 7.496-.488 12.33-.488 14.157 0 4.678.157 9.512.33 14.678.158 5.322.331 10.834.662 16.661h-61.008l18 38h46.835c12.834 95.827 41.18 171.165 85.338 225.827 44 54.835 98 82.173 161.843 82.173 26.662 0 51.654-5.496 74.993-16.33 23.165-11.008 45.007-27.497 65.165-49.67l29.842 62.173h29.166L502 443.01l-38.993-2c-10.834 82.331-29.842 145.165-57.007 188.331-27.166 43.166-60.993 64.662-101.67 64.662-46 0-81.826-22.662-107.668-68-26-45.339-40.489-110.661-43.654-196h239.165l-17.165-38h-224c0-4.835-.174-10.662-.504-17.67-.331-6.834-.504-11.322-.504-13.669 0-1.827.173-6.661.504-14.157.33-7.496.504-14 .504-19.496h195.323l-17.166-39.008H152.001c3.496-84.504 18.662-148.661 45.166-192.331C223.67 51.828 260.663 30 308.175 30c42.661 0 77.826 19.008 105.654 56.835 27.842 38 47.338 93.339 58.346 166.173z"
           id="path13081" /></glyph><glyph
         unicode="b"
         horiz-adv-x="560"
         id="glyph13087"><path
           d="M419.008 227.165c0 67.843-9.67 117.496-29.181 149.165-19.323 31.843-49.654 47.67-90.992 47.67-42.173 0-72.504-15.497-91.496-46.662-18.835-31.008-28.331-81.166-28.331-150.173 0-69.67 9.827-120 29.496-151.34 19.827-31.165 51.67-46.818 95.67-46.818 39.653 0 68.834 15.827 87.165 47.653 18.488 31.67 27.67 81.843 27.67 150.504zm-240 180.173c16 24.157 35.496 42 58.33 53.827 22.993 11.842 49.827 17.842 80.489 17.842 59.842 0 108.504-22.834 146-68.346C501.339 365.165 520 305.165 520 231.007c0-73.512-18.661-133.34-56-179.181C426.835 5.999 378.661-17.01 319.827-17.01c-34.33 0-64.661 6.677-91.323 19.843-26.834 13.165-52.677 34.661-77.669 64.173l-45.827-79.181H70.835c5.827 29.338 10 55.338 12.504 77.67 2.488 22.503 3.67 44.33 3.67 65.51V650c0 15.827-3.513 26.504-10.678 31.827-7.165 5.512-21.827 8.173-44 8.173-2.992 0-7.827-.173-14.504-.504-6.661-.33-12-.488-15.827-.488v38.992l177.008 12V407.338z"
           id="path13085" /></glyph><glyph
         unicode="a"
         horiz-adv-x="523"
         id="glyph13091"><path
           d="M344 249.008c-74.33-9.843-128.504-24.835-162.331-45.512-33.843-20.488-50.661-48.33-50.661-83.496 0-26.992 6.488-47.165 19.653-60.661C163.827 45.827 183.67 39.008 210 39.008c41.165 0 73.827 12.661 98 38 24 25.496 36 60.819 36 106v66zm5.827-185.181C330.33 39.497 304.504 20 272.173 5.67 240-8.835 206.173-16 170.661-16c-42 0-75.323 10.992-100.33 33.166C45.495 39.339 33.006 69.008 33.006 106c0 47.827 24.158 86.33 72.662 115.496 48.504 29.166 128 52.677 238.33 70.504v47.827c0 36.504-8 61.67-24.172 75.512-16 13.826-43.654 20.661-82.992 20.661-26.331 0-47.827-3.496-64.662-10.504-16.677-6.992-25.008-15.496-25.008-25.67 0-1.495 3.843-8.157 11.843-19.495 8-11.323 12-23.323 12-36.158 0-15.512-4.677-27.842-14-36.834-9.181-8.835-21.843-13.339-37.843-13.339-18.504 0-33.165 5.008-43.496 15.165-10.504 10-15.67 24-15.67 41.843 0 36.819 18 67.323 54 91.653 36 24.174 82.174 36.347 138.836 36.347 64.504 0 111.165-11.512 140-34.677C421.669 421.165 436 383.496 436 331.008v-232c0-15.339 3.166-26.835 9.339-34.504 6.157-7.67 15.496-11.496 27.827-11.496 6.504 0 14.504 2.33 24 6.819 9.496 4.504 15.842 6.834 19.165 6.834 2.835 0 5.496-1.496 8-4.661 2.504-2.992 3.67-6.835 3.67-11.496 0-13.339-9.67-26.677-28.835-40.173C479.827-3.165 458.174-10 434-10c-22.504 0-40.992 6.33-55.496 19.008C364 21.669 354.504 40 349.827 63.827z"
           id="path13089" /></glyph></font>
</defs>
</svg>
